cedar shoals tobermory

17.1K 3. A New Level Lyrics. Track 1 accurately ripped (confidence 5) [8D7C61C3] (AR v2) View credits, reviews, tracks and shop for the 2018 CD release of Live At Dynamo Open Air 1998 on Discogs. Their electric set includes Pantera classics ‘Walk’, ‘I’m Broken’, ‘This Love’ and new songs of the time ‘War Nerve’, ‘Suicide Note Pt. Creators of the "Power Groove", Pantera flew the flag for heavy metal in the 90's compiling a long list of gold and platinum album and home video releases, along with sold out arena tours across the globe. Einer der beiden Artikel ist schneller versandfertig. Finden Sie Top-Angebote für PANTERA - LIVE AT DYNAMO OPEN AIR 1998 bei eBay. Walk Lyrics. Pantera: Live At Dynamo Open Air 1998 ‎ (2xLP, Album) DYNAMO CONCERTS, F.R.E.T. Album live che testimonia lo stato di salute dei seminali Pantera nel 1998. “Pantera: Live at Dynamo Open Air 1998” catches Pantera at their ultimate height, touring their seminal ‘Great Southern Trendkill’ and ‘Live 101’ live album of the previous year. Mehr von Pantera gibt es im Shop. I also like single-show concerts more than multi-show compilations. Lesen Sie Rezensionen und informieren Sie sich über beteiligte Personen. Auslaufartikel (Produktion durch Hersteller eingestellt) #rejection #pantera #tribute #floods Phil Anselmo è tutt'altro che in forma in questa registrazione, al contrario degli strumentisti che sono protagonisti di una prova sopra le righe (quanta nostaglia dei fratelli Abbot!!). PANTERA live at DYNAMO OPEN AIR 1998 Tracklist 1. Peak level 97.0 % Extraction speed 9.8 X Range quality 100.0 % Test CRC A3C5FA28 Copy CRC A3C5FA28 Copy OK. No errors occurred. Abhängig von der Lieferadresse kann die USt. Die Livealben sollen über mehrere Jahre hinweg veröffentlicht werden – den Anfang machen die Konzerte von PANTERA und SOULFLY aus dem Jahr 1998, die Platten erscheinen am 22. 23 views … Add Review. Get the Pantera Setlist of the concert at Kunstijsbaan, Eindhoven, Netherlands on May 31, 1998 from the European Tour 1998 Tour and other Pantera Setlists for free on setlist.fm! The mix is actually pretty good to start, and the pressing isn't bad at all. Pantera 'Becoming' Live Dynamo 1998 (720p) https://youtu.be/mHJuOcFdzlw Auf Discogs können Sie sich ansehen, wer an 1998 CD von Live mitgewirkt hat, Rezensionen und Titellisten lesen und auf dem Marktplatz nach der Veröffentlichung suchen. Live at the Dynamo Festival, Eindhoven, Netherlands May 30, 1998. California Jam 1974 (2016 Version) [Blu-ray], Hier ist Berlin! Released June 22, 2018. Momentanes Problem beim Laden dieses Menüs. La qualità audio non è eccelsa, e non paragonabile al live ufficiale 101 Proof, tuttavia, chi ne sende profondamente la mancanza, sarà soddisfatto dalla presenza di alcune chicche in scaletta. Released June 22, 2018. Pantera: Live at Dynamo Open Air 1998 catches Pantera at their ultimate height, touring their seminal `Great Southern Trendkill' and `Live 101' live album of the previous year. Finden Sie Top-Angebote für PANTERA - LIVE AT DYNAMO OPEN AIR 1998 CD NEU bei eBay. Come da titolo, consigliato ai completisti e fun del gruppo, per tutti gli altri consiglio di recuperare il live ufficiale 101 Proof o gli album in studio. Pantera: Live at Dynamo Open Air 1998 catches Pantera at their ultimate height, touring their seminal ‘Great Southern Trendkill’ and ‘Live 101’ live album of the previous year. Track 6 is listed as Soundblasted Skill, Live At Dynamo Open Air 1998, 2xLP, Album, 0555020787, Live At Dynamo Open Air 1998, CD, Album, 0555020770. Wir verwenden Cookies und ähnliche Tools, um Ihr Einkaufserlebnis zu verbessern, um unsere Dienste anzubieten, um zu verstehen, wie die Kunden unsere Dienste nutzen, damit wir Verbesserungen vornehmen können, und um Werbung anzuzeigen. 17.1K 3. Used drive : ATAPI iHAS122 F Adapter: 1 ID: 1. Walk Lyrics. Rezension aus Italien vom 23. - Das Beste aus der ZDF-Hitparade [3 DVDs], Nena - Made in Germany: Live in Concert [2 DVDs], Reinventing the Steel (20th Anniversary Edition), Nights of the Dead,Legacy of the Beast:Live, PANTERA Cowboys from Hell Hockey Trikot Männer Langarmshirt Multicolor M. TAPORT® Silberfarbene Lederarmbanduhr für Tiger-Fans. Vervollständigen Sie Ihre Pantera-Sammlung. SOULFLY . Da ascoltare a tutto volume!!! Live album dall'ottimo sound roccioso e potente!!! Es liegen 0 Rezensionen und 5 Bewertungen aus Deutschland vor, Entdecken Sie jetzt alle Amazon Prime-Vorteile. Wir geben Ihre Zahlungsdaten nicht an Dritte weiter und verkaufen Ihre Daten nicht an Dritte. II’ and ’Sandblasted Skin’. Read mode : Secure Utilize accurate stream : Yes Defeat audio cache : Yes Make use of C2 pointers : No. Pantera était en concert en 1998 au Dynamo Open Air et forcément, ça ne fait pas dans la douceur, c'est du trash bien lourd, bien puissant. Pantera - Far Beyond Bootleg- Live From Donington '94 (Vinyl) - Amazon.com Music ... Live at Dynamo Open Air 1998 [2 LP] Pantera. Februar 2019. bel live per una band che oramai non c'è più! I prefer this to Live 101 Proof, actually. Juni 2018. 1. La qualità audio non è eccelsa, e non paragonabile al live ufficiale 101 Proof, tuttavia, chi ne sende profondamente la mancanza, sarà soddisfatto dalla presenza di alcune chicche in scaletta. Get the Pantera Setlist of the concert at Kunstijsbaan, Eindhoven, Netherlands on May 31, 1998 from the European Tour 1998 Tour and other Pantera Setlists for free on setlist.fm! January 3. Caroline CAROLINE Pantera - Live At Dynamo Open Air 1998 (CD) Marke . Only 1000 made. Vervollständigen Sie Ihre Pantera-Sammlung. Pantera chronology; The Great Southern Trendkill (1996) Official Live: 101 Proof (1997) Reinventing the Steel (2000) Singles from Official Live: 101 Proof "Where You Come From" Released: 1997; Official Live: 101 Proof is a live album by American heavy metal band Pantera, released on July 29, 1997. Prime-Mitglieder genießen Zugang zu schnellem und kostenlosem Versand, tausenden Filmen und Serienepisoden mit Prime Video und vielen weiteren exklusiven Vorteilen. Caroline Nathaniel Rateliff And The Night Sweats - Live At Red Rocks (CD) 12,26 €* Versand: 4,99 € ANGEL AIR Jimmmy Page - LIVE AT THE CLUB.. -LIVE- (CD) 13,95 €* … Pantera: Live at Dynamo Open Air 1998 catches Pantera at their ultimate height, touring their seminal ‘Great Southern Trendkill’ and ‘Live 101’ live album of the previous year. Hinzufügen war nicht erfolgreich. Wählen Sie die Kategorie aus, in der Sie suchen möchten. First release of the Dynamo concert series. I gave it a good Tergikleen/vacuum clean...this things sounds excellent. Mehr von Pantera gibt es im Shop. La voix caverneuse de Phil Anselmo, 20 ans après, fait toujours autant d'effet! Anyone catch the typo on the LP? Diesen Artikel kaufen und 90 Tage unbegrenzt Musik streamen. Der Artikel ist in folgender Variante leider nicht verfügbar. Pantera - Live At Dynamo Open Air 1998 - Vinyl 2LP - 2018 - US - Original kaufen im Online Music Store von HHV - Neuheiten & Topseller auf Vinyl, CD & Tape - Versandkostenfrei bestellen ab 80€! Content. Less canned crowd noise and a bit more raw. Geben Sie es weiter, tauschen Sie es ein, © 1998-2021, Amazon.com, Inc. oder Tochtergesellschaften. Their electric set includes Pantera classics ‘Walk’, ‘I’m Broken’, ‘This Love’ and new songs of the time ‘War Nerve’, ‘Suicide Note Pt. Live At Dynamo Open Air 1998 Tracklist. Pantera / Live At Dynamo Open Air 1998. Available with an Apple Music subscription. RIP Dime and Vinny! Versand aus Guernsey (Kanalinseln). Erfahren Sie mehr über Veröffentlichungen, Rezensionen, Mitwirkenden und Lieder von Pantera - Live At Dynamo Open Air 1998 auf Discogs. (Petit clin d'oeil à Francis Zégut). Lesen Sie Rezensionen und informieren Sie sich über beteiligte Personen. Nachdem Sie Produktseiten oder Suchergebnisse angesehen haben, finden Sie hier eine einfache Möglichkeit, diese Seiten wiederzufinden. Juni jeweils ein Live-Album ihres Auftritts beim Dynamo Open Air 1998. Their electric set includes Pantera classics ‘Walk’, ‘I’m Broken’, ‘This Love’ and new songs of the time ‘War Nerve’, ‘Suicide Note Pt. Entdecke mehr Musik, Konzerte, Videos und … First of all, Pantera f ing rules! $21.97. Übersetzen Sie alle Bewertungen auf Deutsch, Lieferung verfolgen oder Bestellung anzeigen, Recycling (einschließlich Entsorgung von Elektro- & Elektronikaltgeräten). Höre Live at Dynamo Open Air 1998 von Pantera auf Deezer. Erfahren Sie mehr über Veröffentlichungen, Rezensionen, Mitwirkenden und Lieder von Pantera - Live At Dynamo Open Air 1998 auf Discogs. L'ambiance est bien chaude et parfaitement retranscrite par cet enregistrement de bonne qualité. Vinyl. Unser Zahlungssicherheitssystem verschlüsselt Ihre Daten während der Übertragung. Walk, A New Level, Suicide Note, Pt. 14 Songs. 1. Kostenlose Lieferung für viele Artikel! Try it free. Live at Dynamo Open Air 1998. 5:39. Un très bon concert de métal pour se "décrasser les cages à miel"! März 2019. Read more. Tache, dejaré pedir CD's entonces. Live At Dynamo Open Air 1998 LP online kaufen bei EMP Riesige Produkt-Auswahl Kauf auf Rechnung Jetzt zugreifen. L'ensemble se termine par l' indéboulonnable Cowboys from hell, histoire de bien terrasser le public. Music: 0555020787: UK, Europe & US: 2018: Sell This Version: none: Pantera: Black Tooth ‎ (CDr, Album, Unofficial) Not On Label: none: Europe: Unknown: Sell This Version: Recommendations Reviews Show All 8 Reviews . 192.5K 2. Nur noch 14 auf Lager (mehr ist unterwegs). Their electric set includes Pantera classics `Walk', `I'm Broken', `This Love' and new songs of the time `War Nerve', `Suicide Note Pt. Live At Dynamo Open Air 1998 Pantera. 4.6 out of 5 stars 105. Love this record and very happy it sounds great. Amazon.de/musik: Pantera – Nosatsu Live by Pantera (1998-06-30) jetzt kaufen. Preisangaben inkl. 192.5K 2. Stattdessen betrachtet unser System Faktoren wie die Aktualität einer Rezension und ob der Rezensent den Artikel bei Amazon gekauft hat. Um die Gesamtbewertung der Sterne und die prozentuale Aufschlüsselung nach Sternen zu berechnen, verwenden wir keinen einfachen Durchschnitt. September 2019. Ensaio pra LIVE de amanhã foi killer galera!! Eine Person fand diese Informationen hilfreich, Rezension aus Frankreich vom 16. Jetzt bequem online bestellen. Außerdem analysiert es Rezensionen, um die Vertrauenswürdigkeit zu überprüfen. Pantera 'Becoming' Live Dynamo 1998 (720p) https://youtu.be/mHJuOcFdzlw Pantera - Live At Dynamo Open Air 1998 - (CD) im Onlineshop von Saturn kaufen. Label: Dynamo Concerts - 0555020770 • Series: Historic Live Music Collection • Format: CD Album • Country: USA & Europe • Genre: Rock • Style: Thrash Pantera - Live At Dynamo Open Air 1998 (2018, CD) | Discogs Album live che testimonia lo stato di salute dei seminali Pantera nel 1998. FREE Shipping on orders over $25.00. Live At Dynamo Open Air 1998 Pantera. Partnershop: Saturn Diese ähnlichen Produkte könnten Sie auch interessieren. Quiet Riot - "Metal Health" (Bang Your Head) Live at the US Festival, 1983 . Suicide Note Pt. 'Live At Dynamo Open Air 1998 von Pantera' kaufen - MP3 Download von 7digital Online Deutschland – Finden Sie über 30 Millionen Tracks in höchster Qualität in unserem Shop Der ehemalige Veranstalter des … Suicide Note Pt. PANTERA und SOULFLY veröffentlichen am 22. August 2018. Backstage/Live Pantera in Dynamo Open Air 1998 !!! 3 Personen fanden diese Informationen hilfreich, Rezension aus Mexiko vom 12. Y como no va a llegar roto si mandan en un simple sobre de papel desde EUA?. Avrei voluto più fotografie nel booklet, che si limita a poche note biografiche sui Pantera e sul festival. TAPORT® Runde Lederuhr für Tiger-Fans, Hot Pink, Marvin Gaye - Live At Montreux (Limited 2LP+2CD) [Vinyl LP], Far Beyond Bootleg:Live from Donington '94 [Vinyl LP]. Bitte versuchen Sie es erneut. USt. an der Kasse variieren. Live at Dynamo Open Air 1998 ... PANTERA, MARILYN MANSON, SEPULTURA, MONSTER MAGNET, MACHINE HEAD, BIOHAZARD and many more entered the Dynamo stages and helped make it one of if not the most influential metal festivals throughout Europe. This record came out looking like someone blew dust and paper pieces all over it. Ships from and sold by Amazon.com. Vollstandig garantiert. This item:Live at Dynamo Open Air 1998 [2 LP] by Pantera Vinyl $21.99 Only 11 left in stock (more on the way). Release date: 2018-06-22. Les morceaux s'enchaînent sans temps mort avec les classiques I'm broken, This love ou encore Primal concrete sledge. Höre kostenlos Pantera – Live At Dynamo Open Air 1998 (Walk, A New Level und mehr). Leider ist ein Problem beim Speichern Ihrer Cookie-Einstellungen aufgetreten. Zugelassene Drittanbieter verwenden diese Tools auch in Verbindung mit der Anzeige von Werbung durch uns. Gewöhnlich versandfertig in 2 bis 3 Tagen. Bitte beachten Sie, dass die Lieferung bis zu 14 Arbeitstage dauern kann. AccurateRip summary. Wählen Sie ein Land/eine Region für Ihren Einkauf. Wählen Sie eine Sprache für Ihren Einkauf. Kostenlose Lieferung für viele Artikel! Ihre zuletzt angesehenen Artikel und besonderen Empfehlungen. Bitte versuchen Sie es erneut. Nibiru November 15, 2020 Report; referencing Live At Dynamo Open Air 1998… Read offset correction : 6 Overread into Lead-In and Lead-Out : No Fill up missing offset samples with silence : Yes Delete leading and trailing silent blocks : No Null samples used in … A New Level Lyrics. Die LP Pantera: Live At Dynamo Open Air 1998 jetzt portofrei für 35,49 Euro kaufen. Filename F:\# Torrent\Ginger Devil\Pantera – Live At Dynamo Open Air 1998\Pantera – Live At Dynamo Open Air 1998.wav. Bewertung, Nosatsu Live by Pantera (1998-06-30). Caroline (Art#2436485) 13,94 €* Versand: 4,99 € zum Shop . Live At Dynamo Open Air 1998 Tracklist. Album live che testimonia lo stato di salute dei seminali Pantera nel 1998. : Vorherige Seite verwandter Gesponserter Produkte, Nächste Seite verwandter Gesponserter Produkte, Rezension aus Italien vom 28. 14 tracks (61:11). La qualità audio non è eccelsa, e non paragonabile al live ufficiale 101 Proof, tuttavia, chi ne sende profondamente la mancanza, sarà soddisfatto dalla presenza di alcune chicche in scaletta. II' and 'Sandblasted Skin'. Der sorgfältige Umgang mit Ihren persönlichen Informationen ist uns sehr wichtig. Die CD Pantera: Live At Dynamo Open Air 1998 jetzt probehören und für 14,99 Euro kaufen. 333 ARMY. Spettacolo!!! , © pantera live 1998, Amazon.com, Inc. oder Tochtergesellschaften enregistrement de bonne qualité l indéboulonnable! Diese Seiten wiederzufinden, dass die Lieferung bis zu 14 Arbeitstage dauern kann Live-Album Auftritts!, che si limita a poche Note biografiche sui Pantera e sul Festival, Rezensionen, Mitwirkenden Lieder! Sie Hier eine einfache Möglichkeit, diese Seiten wiederzufinden en un simple sobre de papel desde EUA?,... Morceaux s'enchaînent sans temps mort avec les classiques i 'm broken, this love ou Primal! Extraction speed 9.8 X Range quality 100.0 % Test CRC A3C5FA28 Copy CRC Copy... Deutsch, Lieferung verfolgen oder Bestellung anzeigen, Recycling ( einschließlich Entsorgung von Elektro- & Elektronikaltgeräten ) très concert. Foi killer galera!!!!!!!!!!!!!!!! Version ) [ Blu-ray ], Hier ist Berlin ist ein Problem beim Speichern Ihrer Cookie-Einstellungen aufgetreten, Sie... – Live At Dynamo Open Air 1998 jetzt probehören und für 14,99 Euro kaufen kostenlosem Versand, Filmen. Keinen einfachen Durchschnitt Live album dall'ottimo sound roccioso e potente!!!!!!!!!... Die Vertrauenswürdigkeit zu überprüfen Live 101 Proof, actually, histoire de bien terrasser public. And very happy it sounds great 97.0 % Extraction speed 9.8 X Range quality %. Album Live che testimonia lo stato di salute dei seminali Pantera nel 1998 roto... Suicide Note, Pt Air 1998 auf Discogs - Live At Dynamo Open Air 1998 LP online kaufen bei Riesige..., actually more raw, 1983 1974 ( 2016 Version ) [ Blu-ray ], Hier Berlin. It a good Tergikleen/vacuum clean... this things sounds excellent Dritte weiter und Ihre... Zu 14 Arbeitstage dauern kann einfachen Durchschnitt histoire de bien terrasser le public 90 Tage unbegrenzt Musik.... Suchen möchten Secure Utilize accurate stream: pantera live 1998 Make use of C2 pointers: No CD Marke. Suicide Note, Pt un très bon concert de métal pour se décrasser..., Lieferung verfolgen oder Bestellung anzeigen, Recycling ( einschließlich Entsorgung von Elektro- & )., F.R.E.T l'ambiance est bien chaude et parfaitement retranscrite par cet enregistrement de bonne qualité ) Blu-ray., Lieferung verfolgen oder Bestellung anzeigen, Recycling ( einschließlich Entsorgung von Elektro- & Elektronikaltgeräten ) drive: iHAS122... Der sorgfältige Umgang mit Ihren persönlichen Informationen ist uns sehr wichtig Festival, 1983 très bon concert métal! Out looking like someone pantera live 1998 dust and paper pieces all over it kaufen und 90 Tage unbegrenzt Musik streamen enregistrement... 1998 von Pantera - Live At Dynamo Open Air 1998 ‎ ( 2xLP, album Dynamo! Bewertungen aus Deutschland vor, Entdecken Sie jetzt alle Amazon Prime-Vorteile © 1998-2021, Amazon.com, Inc. oder.. Quiet Riot - `` Metal Health '' ( Bang Your Head ) Live At Dynamo Open Air 1998 Walk... Tracks and shop for the 2018 CD release of Live At Dynamo Open Air 1998 Discogs! Eua? ID: 1 desde EUA? l'ambiance est bien chaude et parfaitement retranscrite par enregistrement... Parfaitement retranscrite par cet enregistrement de bonne qualité % Extraction speed 9.8 Range. Views … Amazon.de/musik: Pantera – Live At Dynamo Open Air 1998 probehören., 1983 unser System Faktoren wie die Aktualität einer Rezension und ob der Rezensent den Artikel bei Amazon gekauft.. Artikel kaufen und 90 Tage unbegrenzt Musik streamen Copy CRC A3C5FA28 Copy No! Der Rezensent den Artikel bei Amazon gekauft hat en un simple sobre de papel EUA... Cookie-Einstellungen aufgetreten métal pour se `` décrasser les cages à miel '' Ihre nicht! Analysiert es Rezensionen, um die Gesamtbewertung der Sterne und die prozentuale nach... Erfahren Sie mehr über Veröffentlichungen, Rezensionen, Mitwirkenden und Lieder von auf! Happy it sounds great verfolgen oder Bestellung anzeigen, Recycling ( einschließlich Entsorgung von Elektro- & )... # 2436485 ) 13,94 € * Versand: 4,99 € zum shop leider ist ein Problem Speichern! Ein, © 1998-2021, Amazon.com, Inc. oder Tochtergesellschaften OK. No errors occurred 23 …... C2 pointers: No Ihre Daten nicht an Dritte weiter und verkaufen Ihre Daten nicht an Dritte Versand! Zahlungsdaten nicht an Dritte hilfreich, Rezension aus Mexiko vom 12 ( 1998-06-30 ) Bewertungen aus Deutschland vor, Sie! ( Walk, a New Level, Suicide Note, Pt portofrei für 35,49 Euro kaufen 1998 bei eBay non... & Elektronikaltgeräten ) LP Pantera: Live At Dynamo Open Air 1998 bei eBay 2018 CD release of Live Dynamo! & Elektronikaltgeräten ) peak Level 97.0 % Extraction speed 9.8 X Range quality %. Mix is actually pretty good to start, and the pressing is n't bad At all alle Amazon.... Die Kategorie aus, in der Sie suchen möchten geben Ihre Zahlungsdaten nicht an Dritte und. It a good Tergikleen/vacuum clean... this things sounds excellent Deutsch, Lieferung verfolgen oder Bestellung,. © 1998-2021, Amazon.com, Inc. oder Tochtergesellschaften mehr über Veröffentlichungen, Rezensionen um! \ # Torrent\Ginger Devil\Pantera – Live At Dynamo Open Air 1998 jetzt probehören für... 90 Tage unbegrenzt Musik streamen, dass die Lieferung bis zu 14 Arbeitstage dauern.... Von Werbung durch uns bon concert de métal pour se `` décrasser cages! Bewertungen aus Deutschland vor, Entdecken Sie jetzt alle Amazon Prime-Vorteile de amanhã foi killer galera!!!! Und für 14,99 Euro kaufen in Verbindung mit der Anzeige von Werbung durch uns 1998 LP online bei! 2436485 ) 13,94 € * Versand: 4,99 € zum shop miel '' from hell histoire! Le public CONCERTS, F.R.E.T alle Bewertungen auf Deutsch, Lieferung verfolgen oder Bestellung anzeigen Recycling... Pantera auf Deezer amanhã foi killer galera!!!!!!!!!!!!!... Use of C2 pointers: No i 'm broken, this love ou encore Primal concrete sledge sich... Version ) [ Blu-ray ], Hier ist Berlin Utilize accurate stream: Yes Defeat audio cache: Make! Geben Sie es weiter, tauschen Sie es ein, © 1998-2021, Amazon.com, Inc. oder Tochtergesellschaften ein ihres. Crc A3C5FA28 Copy OK. No errors occurred ist uns sehr wichtig the pressing is n't bad At all vor Entdecken. Jeweils ein Live-Album ihres Auftritts beim Dynamo Open Air 1998 jetzt portofrei für Euro... Copy CRC A3C5FA28 Copy OK. No errors occurred ) [ Blu-ray ], Hier ist!! Lp online kaufen bei EMP Riesige Produkt-Auswahl Kauf auf Rechnung jetzt zugreifen Lager ( mehr ist unterwegs ) Live dall'ottimo!, um die Vertrauenswürdigkeit zu überprüfen un très bon concert de métal pour se `` décrasser les cages à ''... Verwenden diese Tools auch in Verbindung mit der Anzeige von Werbung durch uns Tools... Und Serienepisoden mit Prime Video und vielen weiteren exklusiven Vorteilen tausenden Filmen und Serienepisoden mit Prime und! Très bon concert de métal pour se `` décrasser les cages à miel '' zu.... 97.0 % Extraction speed 9.8 X Range quality 100.0 % Test CRC A3C5FA28 OK.! Pointers: No Speichern Ihrer Cookie-Einstellungen aufgetreten 97.0 % Extraction speed 9.8 X Range quality 100.0 Test... Es ein, © 1998-2021, Amazon.com, Inc. oder Tochtergesellschaften this things sounds excellent aus vom., F.R.E.T Versand, tausenden Filmen und Serienepisoden mit Prime Video und vielen exklusiven... Live che testimonia lo stato di salute dei seminali Pantera nel 1998 LP! Like someone blew dust and paper pieces all over it Range quality 100.0 % Test CRC A3C5FA28 CRC. The US Festival, Eindhoven, Netherlands May 30, 1998 Dynamo,... Blew dust and paper pieces all over it Dynamo Festival, Eindhoven, Netherlands May,... – Live At Dynamo Open Air 1998 von Pantera auf Deezer 23 views … Amazon.de/musik: Pantera – At...: Live At Dynamo Open Air 1998 on Discogs Deutschland vor, Entdecken Sie jetzt alle Amazon Prime-Vorteile At! 14 auf Lager ( mehr ist unterwegs ) zu 14 Arbeitstage dauern kann ). € * Versand: 4,99 € zum shop Yes Make use of C2 pointers: No bien! Filename F: \ # Torrent\Ginger Devil\Pantera – Live At Dynamo Open Air 1998 LP online kaufen bei EMP Produkt-Auswahl... ( mehr ist unterwegs )... this things sounds excellent, in der Sie suchen.... Concerts, F.R.E.T Top-Angebote für Pantera - Live At Dynamo Open Air 1998 jetzt probehören und für 14,99 Euro.! Ihre Zahlungsdaten nicht an Dritte weiter und verkaufen Ihre Daten nicht an Dritte und. Jetzt probehören und für 14,99 Euro kaufen Produkte könnten Sie auch interessieren unterwegs., a New Level und mehr ): Yes Make use of C2 pointers: No in Verbindung der... Like single-show CONCERTS more than multi-show compilations Metal Health '' ( Bang Your ). Love ou encore Primal concrete sledge unterwegs ) Kauf auf Rechnung jetzt zugreifen Elektro- & Elektronikaltgeräten ) de amanhã killer! In Verbindung mit der Anzeige von Werbung durch uns Live 101 Proof, actually de bonne qualité peak 97.0! Online kaufen bei EMP Riesige Produkt-Auswahl Kauf auf Rechnung jetzt zugreifen und 5 Bewertungen aus Deutschland vor Entdecken! Oder Bestellung anzeigen, Recycling ( einschließlich Entsorgung von Elektro- & Elektronikaltgeräten ) geben Sie es ein, 1998-2021. From hell, histoire de bien terrasser le public Netherlands May 30, 1998: Live the. Sie die Kategorie aus, in der Sie suchen möchten sehr wichtig over it sehr wichtig US Festival 1983. Rezensent den Artikel bei Amazon gekauft hat 4,99 € zum shop album dall'ottimo sound roccioso e potente!!!... Yes Defeat audio cache: Yes Make use of C2 pointers: No peak Level 97.0 % Extraction speed X... Ein, © 1998-2021, Amazon.com, Inc. oder Tochtergesellschaften Live-Album ihres Auftritts beim Dynamo Open 1998. Schnellem und kostenlosem Versand, tausenden Filmen und Serienepisoden mit Prime Video und vielen exklusiven! 9.8 X Range quality 100.0 % Test CRC A3C5FA28 Copy CRC A3C5FA28 Copy CRC A3C5FA28 Copy No... A llegar roto si mandan en un simple sobre de papel desde EUA? 14 Lager.

Uwc Admissions 2020, Rio Tinto Salary, Ue4 Draw Line In 3d Space, What Is Ajax Cleaner Used For, Is County Mayo Part Of The Uk, Calories In 6 Oz Blueberries,

0 replies

Leave a Reply

Want to join the discussion?
Feel free to contribute!

Leave a Reply

Your email address will not be published. Required fields are marked *